Admite ofertas

ALAZÁN - DIGAN LO QUE DIGAN - CD - 2008 - DISCO VERIFICADO

Envío desde 5,50€
Pago tc Acepta Pago tc

Número de items: 1

Estado del lote: Normal (con señales de uso normal)

El disco apenas tiene marcas y se ha verificado con el programa informático Exact Audio Copy (ver informe al final);

+++

Bajo ningún concepto se envía ordinario, todos los envíos son certificados

Gastos de envío gratis para pedidos superiores a 30 euros con destino a España peninsular

Vea coste de envío en el apartado "Formas de pago y envío"

Fotos reales del artículo

+++

Exact Audio Copy V1.6 from 23. October 2020

Archivo Log de extracciones desde 8. Marzo 2023, 20:20

Alazán / Digan Lo Que Digan

Usar unidad : PIONEER BD-RW BDR-209M Adapter: 1 ID: 0

Modo de Lectura : : Seguro

Utilizar corriente precisa : Sí

Caché de audio por defecto : No

Utilizar los punteros C2 : No

Corrección de Desplazamiento de Lectura : : 667

Sobreleer tanto en Lead-In como en Lead-Out : No

Rellenar las muestras faltantes con silencios : Sí

Eliminar silencios inicial y final : No

Muestras nulas usadas en los calculos de CRC : Sí

Interfaz usada : Interfaz propio de Win32 para Windowns NT y 2000

Manejo de huecos : No se detectó, por lo que anexa a la pista anterior

Formato de Salida utilizado : : Rutinas WAV Internas

Formato de muestra : 44.100 Hz; 16 Bit; Estéreo

TOC extraídos del CD

Pista | Inicio | Longitud | Inicio del sector | Fin del sector

------------------------------------------------------------------

1 | 0:00.00 | 3:19.13 | 0 | 14937

2 | 3:19.13 | 4:01.22 | 14938 | 33034

3 | 7:20.35 | 3:19.15 | 33035 | 47974

4 | 10:39.50 | 3:54.57 | 47975 | 65581

5 | 14:34.32 | 3:19.05 | 65582 | 80511

6 | 17:53.37 | 3:04.59 | 80512 | 94370

7 | 20:58.21 | 3:06.15 | 94371 | 108335

8 | 24:04.36 | 3:14.23 | 108336 | 122908

9 | 27:18.59 | 3:49.28 | 122909 | 140111

10 | 31:08.12 | 3:21.74 | 140112 | 155260

Pista 1

Nombre de Archivo 01 Digan Lo Que Digan.wav

Nivel Pico 99.9 %

Velocidad de extracción 8.4 X

Calidad de Pista 99.9 %

Comprobación CRC 88D95248

Copiar CRC 88D95248

Pista sin datos en Accuraterip

Copia OK

Pista 2

Nombre de Archivo 02 Ámame.wav

Nivel Pico 99.9 %

Velocidad de extracción 9.2 X

Calidad de Pista 100.0 %

Comprobación CRC 52F87FD0

Copiar CRC 52F87FD0

Pista sin datos en Accuraterip

Copia OK

Pista 3

Nombre de Archivo 03 Luna Rumbera.wav

Nivel Pico 99.9 %

Velocidad de extracción 9.7 X

Calidad de Pista 99.9 %

Comprobación CRC B7BA23E1

Copiar CRC B7BA23E1

Pista sin datos en Accuraterip

Copia OK

Pista 4

Nombre de Archivo 04 No Quiero Olvidar.wav

Nivel Pico 99.9 %

Velocidad de extracción 10.3 X

Calidad de Pista 100.0 %

Comprobación CRC 4CE3D385

Copiar CRC 4CE3D385

Pista sin datos en Accuraterip

Copia OK

Pista 5

Nombre de Archivo 05 Vete.wav

Nivel Pico 99.9 %

Velocidad de extracción 10.7 X

Calidad de Pista 100.0 %

Comprobación CRC 176CC53F

Copiar CRC 176CC53F

Pista sin datos en Accuraterip

Copia OK

Pista 6

Nombre de Archivo 06 Mira Cómo Suena.wav

Nivel Pico 99.9 %

Velocidad de extracción 10.5 X

Calidad de Pista 100.0 %

Comprobación CRC 8D095EC9

Copiar CRC 8D095EC9

Pista sin datos en Accuraterip

Copia OK

Pista 7

Nombre de Archivo 07 Esa Joven Que Le Amó.wav

Nivel Pico 99.9 %

Velocidad de extracción 10.8 X

Calidad de Pista 100.0 %

Comprobación CRC B3D26370

Copiar CRC B3D26370

Pista sin datos en Accuraterip

Copia OK

Pista 8

Nombre de Archivo 08 Me Sabe A Humo.wav

Nivel Pico 99.9 %

Velocidad de extracción 11.3 X

Calidad de Pista 100.0 %

Comprobación CRC AD5028C5

Copiar CRC AD5028C5

Pista sin datos en Accuraterip

Copia OK

Pista 9

Nombre de Archivo 09 Mujeres.wav

Nivel Pico 99.9 %

Velocidad de extracción 11.5 X

Calidad de Pista 99.9 %

Comprobación CRC 638E480A

Copiar CRC 638E480A

Pista sin datos en Accuraterip

Copia OK

Pista 10

Nombre de Archivo 10 Arrikitawn.wav

Nivel Pico 99.9 %

Velocidad de extracción 11.9 X

Calidad de Pista 100.0 %

Comprobación CRC AB23C56D

Copiar CRC AB23C56D

Pista sin datos en Accuraterip

Copia OK

Ninguna pista tiene datos en AccurateRip

Sin Errores

Final del Informe

---- CUETools DB Plugin V2.1.6

[CTDB TOCID: l62r4gFtxYjBCIuia5eiYDkHzHg-] disk not present in database

Submit result: l62r4gFtxYjBCIuia5eiYDkHzHg- has been uploaded

avatar gilypo
Desde 19/11/2014
España (Cantabria)
Vendedor registrado como particular.