Admite ofertas

CLANNAD - BANBA - CD - LAS NUEVAS MUSICAS - DISCO VERIFICADO - EDICIONES DEL PRADO

Envío desde 5,50€
Pago tc Acepta Pago tc

Número de items: 1

Estado del lote: Normal (con señales de uso normal)

El disco tiene pocas marcas y se ha verificado con el programa Exact Audio Copy (ver informe al final)

+++

Bajo ningún concepto se envía ordinario, todos los envíos son certificados

Gastos de envío gratis para pedidos superiores a 30 euros con destino a España peninsular

Vea coste de envío en el apartado "Formas de pago y envío"

Fotos reales del artículo

+++

Exact Audio Copy V1.6 from 23. October 2020


Archivo Log de extracciones desde 16. Septiembre 2022, 21:56


Clannad / Banba


Usar unidad : hp   DVDRAM GU90N  Adapter: 1 ID: 0


Modo de Lectura  :    : Seguro

Utilizar corriente precisa : Sí

Caché de audio por defecto : No

Utilizar los punteros C2  : Sí


Corrección de Desplazamiento de Lectura :   : 102

Sobreleer tanto en Lead-In como en Lead-Out  : No

Rellenar las muestras faltantes con silencios : Sí

Eliminar silencios inicial y final      : No

Muestras nulas usadas en los calculos de CRC : Sí

Interfaz usada                : Interfaz propio de Win32 para Windowns NT y 2000

Manejo de huecos               : No se detectó, por lo que anexa a la pista anterior


Formato de Salida utilizado : : Rutinas WAV Internas

Formato de muestra       : 44.100 Hz; 16 Bit; Estéreo



TOC extraídos del CD


   Pista | Inicio | Longitud | Inicio del sector | Fin del sector 

  ------------------------------------------------------------------

    1 | 0:00.00 | 5:20.00 |      0    |   23999   

    2 | 5:20.00 | 3:27.00 |    24000    |   39524   

    3 | 8:47.00 | 4:10.37 |    39525    |   58311   

    4 | 12:57.37 | 4:24.38 |    58312    |   78149   

    5 | 17:22.00 | 4:04.25 |    78150    |   96474   

    6 | 21:26.25 | 5:16.25 |    96475    |   120199   

    7 | 26:42.50 | 4:25.62 |   120200    |   140136   

    8 | 31:08.37 | 4:22.38 |   140137    |   159824   

    9 | 35:31.00 | 4:18.00 |   159825    |   179174   

    10 | 39:49.00 | 4:13.12 |   179175    |   198161   

    11 | 44:02.12 | 3:10.63 |   198162    |   212474   



Pista 1


   Nombre de Archivo 01. Na Laethe Bhí.wav


   Nivel Pico 86.2 %

   Velocidad de extracción 4.2 X

   Calidad de Pista 100.0 %

   Comprobación CRC 7516952A

   Copiar CRC 7516952A

   Extraida con precisión (confidencia 3) [2C1C7105] (AR v2)

   Copia OK


Pista 2


   Nombre de Archivo 02. Banba Óir.wav


   Nivel Pico 95.9 %

   Velocidad de extracción 4.5 X

   Calidad de Pista 100.0 %

   Comprobación CRC 381CD987

   Copiar CRC 381CD987

   Extraida con precisión (confidencia 3) [CA59C3E3] (AR v2)

   Copia OK


Pista 3


   Nombre de Archivo 03. There for You.wav


   Nivel Pico 90.6 %

   Velocidad de extracción 5.1 X

   Calidad de Pista 100.0 %

   Comprobación CRC 00A16B4B

   Copiar CRC 00A16B4B

   Extraida con precisión (confidencia 3) [B9188AF5] (AR v2)

   Copia OK


Pista 4


   Nombre de Archivo 04. Mystery Game.wav


   Nivel Pico 94.1 %

   Velocidad de extracción 5.3 X

   Calidad de Pista 99.9 %

   Comprobación CRC 7034E76A

   Copiar CRC 7034E76A

   Extraida con precisión (confidencia 3) [E51747AD] (AR v2)

   Copia OK


Pista 5


   Nombre de Archivo 05. Struggle.wav


   Nivel Pico 95.7 %

   Velocidad de extracción 5.6 X

   Calidad de Pista 100.0 %

   Comprobación CRC 9AD28F3C

   Copiar CRC 9AD28F3C

   Extraida con precisión (confidencia 3) [9541912D] (AR v2)

   Copia OK


Pista 6


   Nombre de Archivo 06. I Will Find You.wav


   Nivel Pico 77.9 %

   Velocidad de extracción 6.0 X

   Calidad de Pista 100.0 %

   Comprobación CRC 54F2A8C7

   Copiar CRC 54F2A8C7

   Extraida con precisión (confidencia 3) [A92D25DD] (AR v2)

   Copia OK


Pista 7


   Nombre de Archivo 07. Soul Searcher.wav


   Nivel Pico 89.5 %

   Velocidad de extracción 6.7 X

   Calidad de Pista 100.0 %

   Comprobación CRC 232A2F09

   Copiar CRC 232A2F09

   Extraida con precisión (confidencia 3) [DB32238C] (AR v2)

   Copia OK


Pista 8


   Nombre de Archivo 08. Caidé Sin Do’n Té Sin.wav


   Nivel Pico 81.5 %

   Velocidad de extracción 6.6 X

   Calidad de Pista 100.0 %

   Comprobación CRC B0620359

   Copiar CRC B0620359

   Extraida con precisión (confidencia 3) [40B96852] (AR v2)

   Copia OK


Pista 9


   Nombre de Archivo 09. The Other Side.wav


   Nivel Pico 99.7 %

   Velocidad de extracción 6.9 X

   Calidad de Pista 100.0 %

   Comprobación CRC C5E79889

   Copiar CRC C5E79889

   Extraida con precisión (confidencia 3) [D8AA6BB5] (AR v2)

   Copia OK


Pista 10


   Nombre de Archivo 10. Sunset Dreams.wav


   Nivel Pico 77.3 %

   Velocidad de extracción 7.6 X

   Calidad de Pista 100.0 %

   Comprobación CRC 0C6F9B92

   Copiar CRC 0C6F9B92

   Extraida con precisión (confidencia 3) [F0E6C3C5] (AR v2)

   Copia OK


Pista 11


   Nombre de Archivo 11. A Gentle Place.wav


   Nivel Pico 69.8 %

   Velocidad de extracción 7.3 X

   Calidad de Pista 100.0 %

   Comprobación CRC 562F44BB

   Copiar CRC 562F44BB

   Extraida con precisión (confidencia 3) [14432933] (AR v2)

   Copia OK



Todas las pistas extraidas con precisión


Sin Errores


Final del Informe


---- CUETools DB Plugin V2.1.6


[CTDB TOCID: u7UFpSK80ZY7n4D2GbZniNF1OEU-] found

Submit result: u7UFpSK80ZY7n4D2GbZniNF1OEU- has been confirmed

Track | CTDB Status

 1  | (3/4) Accurately ripped

 2  | (3/4) Accurately ripped

 3  | (3/4) Accurately ripped

 4  | (3/4) Accurately ripped

 5  | (3/4) Accurately ripped

 6  | (3/4) Accurately ripped

 7  | (3/4) Accurately ripped

 8  | (3/4) Accurately ripped

 9  | (3/4) Accurately ripped

 10  | (3/4) Accurately ripped

 11  | (3/4) Accurately ripped


avatar gilypo
Desde 19/11/2014
España (Cantabria)
Vendedor registrado como particular.