Admite ofertas

LA CASA DE LOS ESPIRITUS HANS ZIMMER CD LAS NUEVAS MUSICAS - DISCO VERIFICADO - EDICIONES DEL PRADO

Envío desde 5,50€
Pago tc Acepta Pago tc

Número de items: 1

Estado del lote: Normal (con señales de uso normal)

El disco tiene pocas marcas y se ha verificado con el programa Exact Audio Copy (ver informe al final)

+++

Bajo ningún concepto se envía ordinario, todos los envíos son certificados

Gastos de envío gratis para pedidos superiores a 30 euros con destino a España peninsular

Vea coste de envío en el apartado "Formas de pago y envío"

Fotos reales del artículo

+++

Exact Audio Copy V1.6 from 23. October 2020


Archivo Log de extracciones desde 17. Septiembre 2022, 17:27


Hans Zimmer / Das Geisterhaus


Usar unidad : hp   DVDRAM GU90N  Adapter: 1 ID: 0


Modo de Lectura  :    : Seguro

Utilizar corriente precisa : Sí

Caché de audio por defecto : No

Utilizar los punteros C2  : Sí


Corrección de Desplazamiento de Lectura :   : 102

Sobreleer tanto en Lead-In como en Lead-Out  : No

Rellenar las muestras faltantes con silencios : Sí

Eliminar silencios inicial y final      : No

Muestras nulas usadas en los calculos de CRC : Sí

Interfaz usada                : Interfaz propio de Win32 para Windowns NT y 2000

Manejo de huecos               : No se detectó, por lo que anexa a la pista anterior


Formato de Salida utilizado : : Rutinas WAV Internas

Formato de muestra       : 44.100 Hz; 16 Bit; Estéreo



TOC extraídos del CD


   Pista | Inicio | Longitud | Inicio del sector | Fin del sector 

  ------------------------------------------------------------------

    1 | 0:00.00 | 10:05.00 |      0    |   45374   

    2 | 10:05.00 | 6:38.50 |    45375    |   75274   

    3 | 16:43.50 | 9:33.37 |    75275    |   118286   

    4 | 26:17.12 | 9:48.00 |   118287    |   162386   

    5 | 36:05.12 | 7:27.43 |   162387    |   195954   



Pista 1


   Nombre de Archivo 01. The House of the Spirits.wav


   Nivel Pico 79.1 %

   Velocidad de extracción 5.0 X

   Calidad de Pista 100.0 %

   Comprobación CRC 2972C3BB

   Copiar CRC 2972C3BB

   Extraida con precisión (confidencia 2) [5BC1F259] (AR v2)

   Copia OK


Pista 2


   Nombre de Archivo 02. Clara.wav


   Nivel Pico 40.9 %

   Velocidad de extracción 5.8 X

   Calidad de Pista 99.9 %

   Comprobación CRC 509FB8AE

   Copiar CRC 509FB8AE

   Extraida con precisión (confidencia 2) [CD063165] (AR v2)

   Copia OK


Pista 3


   Nombre de Archivo 03. Coup.wav


   Nivel Pico 96.8 %

   Velocidad de extracción 6.9 X

   Calidad de Pista 100.0 %

   Comprobación CRC 92FD146B

   Copiar CRC 92FD146B

   Extraida con precisión (confidencia 2) [A77F20EC] (AR v2)

   Copia OK


Pista 4


   Nombre de Archivo 04. Pedro and Blanca.wav


   Nivel Pico 69.7 %

   Velocidad de extracción 7.9 X

   Calidad de Pista 100.0 %

   Comprobación CRC 1D1B79DA

   Copiar CRC 1D1B79DA

   Extraida con precisión (confidencia 2) [5E4F6164] (AR v2)

   Copia OK


Pista 5


   Nombre de Archivo 05. Clara's Ghost , La Paloma , Closing Titles.wav


   Nivel Pico 79.4 %

   Velocidad de extracción 8.4 X

   Calidad de Pista 100.0 %

   Comprobación CRC 64FC2BD0

   Copiar CRC 64FC2BD0

   Extraida con precisión (confidencia 2) [8F679A64] (AR v2)

   Copia OK



Todas las pistas extraidas con precisión


Sin Errores


Final del Informe


---- CUETools DB Plugin V2.1.6


[CTDB TOCID: DMs8km2DV9qHQeA0jgZOgGi2RKc-] found

Submit result: DMs8km2DV9qHQeA0jgZOgGi2RKc- has been confirmed

Track | CTDB Status

 1  | (3/3) Accurately ripped

 2  | (3/3) Accurately ripped

 3  | (3/3) Accurately ripped

 4  | (3/3) Accurately ripped

 5  | (3/3) Accurately ripped


avatar gilypo
Desde 19/11/2014
España (Cantabria)
Vendedor registrado como particular.