Admite ofertas

LLUIS LLACH - IMATGES - CD - LAS NUEVAS MUSICAS - DISCO VERIFICADO - EDICIONES DEL PRADO

Envío desde 5,50€
Pago tc Acepta Pago tc

Número de items: 1

Estado del lote: Normal (con señales de uso normal)

El disco tiene pocas marcas y se ha verificado con el programa Exact Audio Copy (ver informe al final)

+++

Bajo ningún concepto se envía ordinario, todos los envíos son certificados

Gastos de envío gratis para pedidos superiores a 30 euros con destino a España peninsular

Vea coste de envío en el apartado "Formas de pago y envío"

Fotos reales del artículo

+++

Exact Audio Copy V1.6 from 23. October 2020


Archivo Log de extracciones desde 29. Septiembre 2022, 0:02


Lluís Llach / Imatges


Usar unidad : hp   DVDRAM GU90N  Adapter: 1 ID: 0


Modo de Lectura  :    : Seguro

Utilizar corriente precisa : Sí

Caché de audio por defecto : No

Utilizar los punteros C2  : Sí


Corrección de Desplazamiento de Lectura :   : 102

Sobreleer tanto en Lead-In como en Lead-Out  : No

Rellenar las muestras faltantes con silencios : Sí

Eliminar silencios inicial y final      : No

Muestras nulas usadas en los calculos de CRC : Sí

Interfaz usada                : Interfaz propio de Win32 para Windowns NT y 2000

Manejo de huecos               : No se detectó, por lo que anexa a la pista anterior


Formato de Salida utilizado : : Rutinas WAV Internas

Formato de muestra       : 44.100 Hz; 16 Bit; Estéreo



TOC extraídos del CD


   Pista | Inicio | Longitud | Inicio del sector | Fin del sector 

  ------------------------------------------------------------------

    1 | 0:00.00 | 3:13.25 |      0    |   14499   

    2 | 3:13.25 | 6:35.37 |    14500    |   44161   

    3 | 9:48.62 | 6:24.13 |    44162    |   72974   

    4 | 16:13.00 | 3:29.50 |    72975    |   88699   

    5 | 19:42.50 | 5:32.12 |    88700    |   113611   

    6 | 25:14.62 | 3:24.38 |   113612    |   128949   

    7 | 28:39.25 | 1:26.25 |   128950    |   135424   

    8 | 30:05.50 | 18:29.25 |   135425    |   218624   



Pista 1


   Nombre de Archivo 01. La mirada dén Marcello.wav


   Nivel Pico 100.0 %

   Velocidad de extracción 4.2 X

   Calidad de Pista 100.0 %

   Comprobación CRC 5A5E6933

   Copiar CRC 5A5E6933

   Extraida con precisión (confidencia 3) [CF82B7A3] (AR v2)

   Copia OK


Pista 2


   Nombre de Archivo 02. Bigi.wav


   Nivel Pico 90.0 %

   Velocidad de extracción 4.9 X

   Calidad de Pista 99.9 %

   Comprobación CRC 6E8D9251

   Copiar CRC 6E8D9251

   Extraida con precisión (confidencia 3) [4EE8FD81] (AR v2)

   Copia OK


Pista 3


   Nombre de Archivo 03. Al meu pare.wav


   Nivel Pico 67.7 %

   Velocidad de extracción 5.9 X

   Calidad de Pista 100.0 %

   Comprobación CRC 2BCAC948

   Copiar CRC 2BCAC948

   Extraida con precisión (confidencia 3) [DF37BC21] (AR v2)

   Copia OK


Pista 4


   Nombre de Archivo 04. A Paris, somiant la Pampa.wav


   Nivel Pico 100.0 %

   Velocidad de extracción 6.1 X

   Calidad de Pista 99.8 %

   Comprobación CRC 09CE9A8C

   Copiar CRC 09CE9A8C

   Extraida con precisión (confidencia 3) [E8A38ADA] (AR v2)

   Copia OK


Pista 5


   Nombre de Archivo 05. Al guinyol dén Michel, quina por!.wav


   Nivel Pico 75.1 %

   Velocidad de extracción 7.0 X

   Calidad de Pista 100.0 %

   Comprobación CRC D8AC8555

   Copiar CRC D8AC8555

   Extraida con precisión (confidencia 3) [9F87825E] (AR v2)

   Copia OK


Pista 6


   Nombre de Archivo 06. Vals dén Marcello.wav


   Nivel Pico 61.8 %

   Velocidad de extracción 6.9 X

   Calidad de Pista 100.0 %

   Comprobación CRC EC277C37

   Copiar CRC EC277C37

   Extraida con precisión (confidencia 3) [E82FBBCC] (AR v2)

   Copia OK


Pista 7


   Nombre de Archivo 07. Bigi, perqué el puiguis ballar.wav


   Nivel Pico 44.1 %

   Velocidad de extracción 6.4 X

   Calidad de Pista 99.7 %

   Comprobación CRC 10E952B4

   Copiar CRC 10E952B4

   Extraida con precisión (confidencia 3) [6F59D0C4] (AR v2)

   Copia OK


Pista 8


   Nombre de Archivo 08. Tema de la processó.wav


   Nivel Pico 96.6 %

   Velocidad de extracción 8.2 X

   Calidad de Pista 100.0 %

   Comprobación CRC D8474C04

   Copiar CRC D8474C04

   Extraida con precisión (confidencia 3) [1421A404] (AR v2)

   Copia OK



Todas las pistas extraidas con precisión


Sin Errores


Final del Informe


---- CUETools DB Plugin V2.1.6


[CTDB TOCID: Fdgw.YDGUPumC173KJvofJJAAYk-] found

Submit result: already submitted

Track | CTDB Status

 1  | (7/7) Accurately ripped

 2  | (7/7) Accurately ripped

 3  | (7/7) Accurately ripped

 4  | (7/7) Accurately ripped

 5  | (7/7) Accurately ripped

 6  | (7/7) Accurately ripped

 7  | (7/7) Accurately ripped

 8  | (7/7) Accurately ripped


avatar gilypo
Desde 19/11/2014
España (Cantabria)
Vendedor registrado como particular.