Utilizamos cookies propias y de terceros para analizar nuestros servicios. Si continúas navegando, consideramos que aceptas su uso. Más información AQUÍ

Admite ofertas

MARTIN CARTHY - SHEARWATER - CD - DISCO VERIFICADO - 1991


Número de items: 1

Estado del lote: Algún defecto
Arrugas en lateral del libreto (ver fotos)

El disco tiene pocas marcas y se ha verificado informáticamente con el programa Exact Audio Copy (ver informe al final)

Arrugas en lateral del libreto (ver fotos)


+++

Bajo ningún concepto se envía ordinario, todos los envíos son certificados

Gastos de envío gratis para pedidos superiores a 30 euros con destino a España peninsular

Vea coste de envío en el apartado "Formas de pago y envío"

Fotos reales del artículo

+++

Exact Audio Copy V1.6 from 23. October 2020


Archivo Log de extracciones desde 30. Julio 2022, 18:38


Martin Carthy / Shearwater


Usar unidad : hp   DVDRAM GU90N  Adapter: 1 ID: 0


Modo de Lectura  :    : Seguro

Utilizar corriente precisa : Sí

Caché de audio por defecto : No

Utilizar los punteros C2  : Sí


Corrección de Desplazamiento de Lectura :   : 102

Sobreleer tanto en Lead-In como en Lead-Out  : No

Rellenar las muestras faltantes con silencios : Sí

Eliminar silencios inicial y final      : No

Muestras nulas usadas en los calculos de CRC : Sí

Interfaz usada                : Interfaz propio de Win32 para Windowns NT y 2000

Manejo de huecos               : No se detectó, por lo que anexa a la pista anterior


Formato de Salida utilizado : : Rutinas WAV Internas

Formato de muestra       : 44.100 Hz; 16 Bit; Estéreo



TOC extraídos del CD


   Pista | Inicio | Longitud | Inicio del sector | Fin del sector 

  ------------------------------------------------------------------

    1 | 0:00.32 | 2:46.10 |     32    |   12491   

    2 | 2:46.42 | 4:31.08 |    12492    |   32824   

    3 | 7:17.50 | 2:31.40 |    32825    |   44189   

    4 | 9:49.15 | 5:25.12 |    44190    |   68576   

    5 | 15:14.27 | 2:49.30 |    68577    |   81281   

    6 | 18:03.57 | 3:25.33 |    81282    |   96689   

    7 | 21:29.15 | 4:34.72 |    96690    |   117311   

    8 | 26:04.12 | 3:42.73 |   117312    |   134034   

    9 | 29:47.10 | 9:23.37 |   134035    |   176296   

    10 | 39:10.47 | 1:33.48 |   176297    |   183319   



Pista 1


   Nombre de Archivo 01. I Was a Young Man.wav


   Nivel Pico 72.5 %

   Velocidad de extracción 3.6 X

   Calidad de Pista 100.0 %

   Comprobación CRC 17FDC2C6

   Copiar CRC 17FDC2C6

   Extraida con precisión (confidencia 5) [A96CDB0F] (AR v2)

   Copia OK


Pista 2


   Nombre de Archivo 02. Banks of Green Willow.wav


   Nivel Pico 65.4 %

   Velocidad de extracción 4.9 X

   Calidad de Pista 100.0 %

   Comprobación CRC 37FBEFB1

   Copiar CRC 37FBEFB1

   Extraida con precisión (confidencia 5) [C2B1753F] (AR v2)

   Copia OK


Pista 3


   Nombre de Archivo 03. Handsome Polly-O.wav


   Nivel Pico 53.1 %

   Velocidad de extracción 5.2 X

   Calidad de Pista 100.0 %

   Comprobación CRC 02D1FF13

   Copiar CRC 02D1FF13

   Extraida con precisión (confidencia 5) [C6F8EEA6] (AR v2)

   Copia OK


Pista 4


   Nombre de Archivo 04. Outlandish Knight.wav


   Nivel Pico 81.1 %

   Velocidad de extracción 6.0 X

   Calidad de Pista 100.0 %

   Comprobación CRC B48DBE3E

   Copiar CRC B48DBE3E

   Extraida con precisión (confidencia 5) [FC22263D] (AR v2)

   Copia OK


Pista 5


   Nombre de Archivo 05. He Called for a Candle.wav


   Nivel Pico 64.3 %

   Velocidad de extracción 6.0 X

   Calidad de Pista 100.0 %

   Comprobación CRC F40F838A

   Copiar CRC F40F838A

   Extraida con precisión (confidencia 5) [6040B84D] (AR v2)

   Copia OK


Pista 6


   Nombre de Archivo 06. John Blunt.wav


   Nivel Pico 84.6 %

   Velocidad de extracción 6.4 X

   Calidad de Pista 100.0 %

   Comprobación CRC AE1B8CF6

   Copiar CRC AE1B8CF6

   Extraida con precisión (confidencia 5) [D59ED65F] (AR v2)

   Copia OK


Pista 7


   Nombre de Archivo 07. Lord Randall.wav


   Nivel Pico 77.3 %

   Velocidad de extracción 6.8 X

   Calidad de Pista 100.0 %

   Comprobación CRC CB8758D8

   Copiar CRC CB8758D8

   Extraida con precisión (confidencia 5) [0A484514] (AR v2)

   Copia OK


Pista 8


   Nombre de Archivo 08. William Taylor.wav


   Nivel Pico 55.5 %

   Velocidad de extracción 7.1 X

   Calidad de Pista 100.0 %

   Comprobación CRC C807219A

   Copiar CRC C807219A

   Extraida con precisión (confidencia 5) [8B1E570D] (AR v2)

   Copia OK


Pista 9


   Nombre de Archivo 09. Famous Flower of Serving Men.wav


   Nivel Pico 100.0 %

   Velocidad de extracción 8.1 X

   Calidad de Pista 100.0 %

   Comprobación CRC FA94CC08

   Copiar CRC FA94CC08

   Extraida con precisión (confidencia 5) [E35BDD48] (AR v2)

   Copia OK


Pista 10


   Nombre de Archivo 10. Betsy Bell and Mary Gray.wav


   Nivel Pico 60.4 %

   Velocidad de extracción 7.4 X

   Calidad de Pista 100.0 %

   Comprobación CRC D538487A

   Copiar CRC D538487A

   Extraida con precisión (confidencia 5) [963ED564] (AR v2)

   Copia OK



Todas las pistas extraidas con precisión


Sin Errores


Final del Informe


---- CUETools DB Plugin V2.1.6


[CTDB TOCID: GeGfAZrvaZx0TZZWAIRKUAjQWwc-] found

Submit result: GeGfAZrvaZx0TZZWAIRKUAjQWwc- has been confirmed

Track | CTDB Status

 1  | (10/10) Accurately ripped

 2  | (10/10) Accurately ripped

 3  | (10/10) Accurately ripped

 4  | (10/10) Accurately ripped

 5  | (10/10) Accurately ripped

 6  | ( 9/10) Accurately ripped

 7  | (10/10) Accurately ripped

 8  | (10/10) Accurately ripped

 9  | ( 9/10) Accurately ripped

 10  | (10/10) Accurately ripped

avatar gilypo
Desde 19/11/2014
España (Cantabria)
Vendedor registrado como particular.