Admite ofertas

MILLADOIRO GALICIA - NO TEMPO - CD - LAS NUEVAS MUSICAS - DISCO VERIFICADO - EDICIONES DEL PRADO

Envío desde 5,50€
Pago tc Acepta Pago tc

Número de items: 1

Estado del lote: Normal (con señales de uso normal)

El disco tiene pocas marcas y se ha verificado con el programa Exact Audio Copy (ver informe al final)

+++

Bajo ningún concepto se envía ordinario, todos los envíos son certificados

Gastos de envío gratis para pedidos superiores a 30 euros con destino a España peninsular

Vea coste de envío en el apartado "Formas de pago y envío"

Fotos reales del artículo

+++

Exact Audio Copy V1.6 from 23. October 2020

Archivo Log de extracciones desde 17. Septiembre 2022, 20:56

Milladoiro / Galicia no tempo

Usar unidad : hp DVDRAM GU90N Adapter: 1 ID: 0

Modo de Lectura : : Seguro

Utilizar corriente precisa : Sí

Caché de audio por defecto : No

Utilizar los punteros C2 : Sí

Corrección de Desplazamiento de Lectura : : 102

Sobreleer tanto en Lead-In como en Lead-Out : No

Rellenar las muestras faltantes con silencios : Sí

Eliminar silencios inicial y final : No

Muestras nulas usadas en los calculos de CRC : Sí

Interfaz usada : Interfaz propio de Win32 para Windowns NT y 2000

Manejo de huecos : No se detectó, por lo que anexa a la pista anterior

Formato de Salida utilizado : : Rutinas WAV Internas

Formato de muestra : 44.100 Hz; 16 Bit; Estéreo

TOC extraídos del CD

Pista | Inicio | Longitud | Inicio del sector | Fin del sector

------------------------------------------------------------------

1 | 0:00.32 | 7:13.68 | 32 | 32574

2 | 7:14.25 | 7:15.35 | 32575 | 65234

3 | 14:29.60 | 14:12.00 | 65235 | 129134

4 | 28:41.60 | 14:47.17 | 129135 | 195676

Pista 1

Nombre de Archivo 01. As raíces.wav

Nivel Pico 100.0 %

Velocidad de extracción 4.8 X

Calidad de Pista 100.0 %

Comprobación CRC CB656E32

Copiar CRC CB656E32

Extraida con precisión (confidencia 3) [7C96C5B3] (AR v2)

Copia OK

Pista 2

Nombre de Archivo 02. O camiño.wav

Nivel Pico 100.0 %

Velocidad de extracción 5.7 X

Calidad de Pista 100.0 %

Comprobación CRC D0D6A11E

Copiar CRC D0D6A11E

Extraida con precisión (confidencia 3) [DA0FD1D2] (AR v2)

Copia OK

Pista 3

Nombre de Archivo 03. O esplendor.wav

Nivel Pico 99.9 %

Velocidad de extracción 6.9 X

Calidad de Pista 100.0 %

Comprobación CRC B7066557

Copiar CRC B7066557

Extraida con precisión (confidencia 3) [F1BED74E] (AR v2)

Copia OK

Pista 4

Nombre de Archivo 04. A nova identidade.wav

Nivel Pico 99.9 %

Velocidad de extracción 7.9 X

Calidad de Pista 100.0 %

Comprobación CRC A2D1B17D

Copiar CRC A2D1B17D

Extraida con precisión (confidencia 3) [B5BAB117] (AR v2)

Copia OK

Todas las pistas extraidas con precisión

Sin Errores

Final del Informe

---- CUETools DB Plugin V2.1.6

[CTDB TOCID: M00P6xm8Psn7NVq5aEXv8S51osU-] found

Submit result: M00P6xm8Psn7NVq5aEXv8S51osU- has been confirmed

Track | CTDB Status

1 | (16/16) Accurately ripped

2 | (16/16) Accurately ripped

3 | (16/16) Accurately ripped

4 | (14/16) Accurately ripped

avatar gilypo
Desde 19/11/2014
España (Cantabria)
Vendedor registrado como particular.