Admite ofertas

OUTKAST - SPEAKERBOXXX - THE LOVE BELOW - CD DOBLE - 2003 - DISCOS VERIFICADOS

Envío desde 5,50€
Pago tc Acepta Pago tc

Número de items: 1

Estado del lote: Normal (con señales de uso normal)
Ver descripción y fotos

Los discos tienen marcas pero se han verificado con precisión con el programa informático Exact Audio Copy (ver informe al final)

+++

Bajo ningún concepto se envía ordinario, todos los envíos son certificados

Gastos de envío gratis para pedidos superiores a 30 euros con destino a España peninsular

Vea coste de envío en el apartado "Formas de pago y envío"

Fotos reales del artículo

+++

Exact Audio Copy V1.6 from 23. October 2020

Archivo Log de extracciones desde 21. Julio 2023, 20:06

OutKast / Speakerboxxx _The Love Below (CD 1)

Usar unidad : HL-DT-STDVD-ROM GDR8161B Adapter: 1 ID: 0

Modo de Lectura : : Seguro

Utilizar corriente precisa : Sí

Caché de audio por defecto : Sí

Utilizar los punteros C2 : Sí

Corrección de Desplazamiento de Lectura/Escritura combinadas : : 0

Sobreleer tanto en Lead-In como en Lead-Out : No

Rellenar las muestras faltantes con silencios : Sí

Eliminar silencios inicial y final : No

Muestras nulas usadas en los calculos de CRC : Sí

Interfaz usada : Interfaz propio de Win32 para Windowns NT y 2000

Manejo de huecos : No se detectó, por lo que anexa a la pista anterior

Formato de Salida utilizado : : Rutinas WAV Internas

Formato de muestra : 44.100 Hz; 16 Bit; Estéreo

TOC extraídos del CD

Pista | Inicio | Longitud | Inicio del sector | Fin del sector

------------------------------------------------------------------

1 | 0:00.00 | 1:29.29 | 0 | 6703

2 | 1:29.29 | 3:56.54 | 6704 | 24457

3 | 5:26.08 | 3:19.27 | 24458 | 39409

4 | 8:45.35 | 3:56.48 | 39410 | 57157

5 | 12:42.08 | 3:54.00 | 57158 | 74707

6 | 16:36.08 | 3:57.10 | 74708 | 92492

7 | 20:33.18 | 3:08.67 | 92493 | 106659

8 | 23:42.10 | 2:43.58 | 106660 | 118942

9 | 26:25.68 | 3:27.20 | 118943 | 134487

10 | 29:53.13 | 2:09.65 | 134488 | 144227

11 | 32:03.03 | 4:46.13 | 144228 | 165690

12 | 36:49.16 | 0:24.49 | 165691 | 167539

13 | 37:13.65 | 3:32.52 | 167540 | 183491

14 | 40:46.42 | 4:35.62 | 183492 | 204178

15 | 45:22.29 | 1:15.21 | 204179 | 209824

16 | 46:37.50 | 4:35.54 | 209825 | 230503

17 | 51:13.29 | 0:40.39 | 230504 | 233542

18 | 51:53.68 | 3:57.28 | 233543 | 251345

19 | 55:51.21 | 0:35.00 | 251346 | 253970

Pista 1

Nombre de Archivo 01 Intro.wav

Nivel Pico 98.8 %

Velocidad de extracción 5.0 X

Calidad de Pista 100.0 %

Comprobación CRC C6C2A094

Copiar CRC C6C2A094

Copia OK

Pista 2

Nombre de Archivo 02 OutKast ft. Andr 3000 , GhettoMusick.wav

Nivel Pico 98.8 %

Velocidad de extracción 7.0 X

Calidad de Pista 100.0 %

Comprobación CRC 26C0A8E5

Copiar CRC 26C0A8E5

Copia OK

Pista 3

Nombre de Archivo 03 Unhappy.wav

Nivel Pico 98.8 %

Velocidad de extracción 7.3 X

Calidad de Pista 100.0 %

Comprobación CRC 28C89CAF

Copiar CRC 28C89CAF

Copia OK

Pista 4

Nombre de Archivo 04 OutKast ft. Sleepy Brown & Jazze Pha , Bowtie.wav

Nivel Pico 98.8 %

Velocidad de extracción 8.2 X

Calidad de Pista 100.0 %

Comprobación CRC FEE19EBE

Copiar CRC FEE19EBE

Copia OK

Pista 5

Nombre de Archivo 05 OutKast ft. Sleepy Brown , The Way You Move.wav

Nivel Pico 98.8 %

Velocidad de extracción 8.8 X

Calidad de Pista 100.0 %

Comprobación CRC 649865EE

Copiar CRC 649865EE

Copia OK

Pista 6

Nombre de Archivo 06 The Rooster.wav

Nivel Pico 98.8 %

Velocidad de extracción 9.3 X

Calidad de Pista 100.0 %

Comprobación CRC 9F6C005D

Copiar CRC 9F6C005D

Copia OK

Pista 7

Nombre de Archivo 07 OutKast ft. Killer Mike , Bust.wav

Nivel Pico 98.8 %

Velocidad de extracción 9.2 X

Calidad de Pista 100.0 %

Comprobación CRC 0B36E55F

Copiar CRC 0B36E55F

Copia OK

Pista 8

Nombre de Archivo 08 War.wav

Nivel Pico 98.8 %

Velocidad de extracción 9.1 X

Calidad de Pista 100.0 %

Comprobación CRC D8E1B034

Copiar CRC D8E1B034

Copia OK

Pista 9

Nombre de Archivo 09 Church.wav

Nivel Pico 98.8 %

Velocidad de extracción 10.1 X

Calidad de Pista 100.0 %

Comprobación CRC B897E9C4

Copiar CRC B897E9C4

Copia OK

Pista 10

Nombre de Archivo 10 Bamboo (Interlude).wav

Nivel Pico 98.8 %

Velocidad de extracción 9.2 X

Calidad de Pista 100.0 %

Comprobación CRC 29DCFD4C

Copiar CRC 29DCFD4C

Copia OK

Pista 11

Nombre de Archivo 11 OutKast ft. Konkrete, Big Gipp & Ludacris , Tomb of the Boom.wav

Nivel Pico 98.8 %

Velocidad de extracción 7.9 X

Calidad de Pista 99.9 %

Comprobación CRC 14249C78

Copiar CRC 14249C78

Copia OK

Pista 12

Nombre de Archivo 12 E-Mac (Interlude).wav

Nivel Pico 98.4 %

Velocidad de extracción 4.4 X

Calidad de Pista 100.0 %

Comprobación CRC DF5EA92A

Copiar CRC DF5EA92A

Copia OK

Pista 13

Nombre de Archivo 13 OutKast ft. Andr 3000 , Knowing.wav

Nivel Pico 98.8 %

Velocidad de extracción 11.1 X

Calidad de Pista 100.0 %

Comprobación CRC 0C9BC3C2

Copiar CRC 0C9BC3C2

Copia OK

Pista 14

Nombre de Archivo 14 OutKast ft. Killer Mike & Jay-Z , Flip Flop Rock.wav

Nivel Pico 98.8 %

Velocidad de extracción 11.9 X

Calidad de Pista 100.0 %

Comprobación CRC 2C76EF57

Copiar CRC 2C76EF57

Copia OK

Pista 15

Nombre de Archivo 15 Interlude.wav

Nivel Pico 83.1 %

Velocidad de extracción 8.5 X

Calidad de Pista 100.0 %

Comprobación CRC 8FA05DCE

Copiar CRC 8FA05DCE

Copia OK

Pista 16

Nombre de Archivo 16 OutKast ft. Khujo & CeeLo Green , Reset.wav

Nivel Pico 98.8 %

Velocidad de extracción 12.4 X

Calidad de Pista 100.0 %

Comprobación CRC A0640DBF

Copiar CRC A0640DBF

Copia OK

Pista 17

Nombre de Archivo 17 D-Boi (Interlude).wav

Nivel Pico 98.3 %

Velocidad de extracción 6.5 X

Calidad de Pista 100.0 %

Comprobación CRC 0595184B

Copiar CRC 0595184B

Copia OK

Pista 18

Nombre de Archivo 18 OutKast ft. Slimm Calhoun, Lil Jon, East Side Boyz & Mello , Last Call.wav

Nivel Pico 98.8 %

Velocidad de extracción 12.5 X

Calidad de Pista 100.0 %

Comprobación CRC A66D76C7

Copiar CRC A66D76C7

Copia OK

Pista 19

Nombre de Archivo 19 Bowtie (Postlude).wav

Nivel Pico 98.6 %

Velocidad de extracción 5.8 X

Calidad de Pista 100.0 %

Comprobación CRC 36C670F6

Copiar CRC 36C670F6

Copia OK

Sin Errores

Final del Informe

==== Log checksum FD89947AA53179D999B538CE5F9BBAED5A2D1FBC26566CBFF82C4563A27AC15A ====

+++++

Exact Audio Copy V1.6 from 23. October 2020

Archivo Log de extracciones desde 21. Julio 2023, 20:25

OutKast / Speakerboxxx - The Love Below (Disc 2)

Usar unidad : HL-DT-STDVD-ROM GDR8161B Adapter: 1 ID: 0

Modo de Lectura : : Seguro

Utilizar corriente precisa : Sí

Caché de audio por defecto : Sí

Utilizar los punteros C2 : Sí

Corrección de Desplazamiento de Lectura/Escritura combinadas : : 0

Sobreleer tanto en Lead-In como en Lead-Out : No

Rellenar las muestras faltantes con silencios : Sí

Eliminar silencios inicial y final : No

Muestras nulas usadas en los calculos de CRC : Sí

Interfaz usada : Interfaz propio de Win32 para Windowns NT y 2000

Manejo de huecos : No se detectó, por lo que anexa a la pista anterior

Formato de Salida utilizado : : Rutinas WAV Internas

Formato de muestra : 44.100 Hz; 16 Bit; Estéreo

TOC extraídos del CD

Pista | Inicio | Longitud | Inicio del sector | Fin del sector

------------------------------------------------------------------

1 | 0:00.00 | 1:27.65 | 0 | 6589

2 | 1:27.65 | 2:49.55 | 6590 | 19319

3 | 4:17.45 | 2:20.13 | 19320 | 29832

4 | 6:37.58 | 5:23.08 | 29833 | 54065

5 | 12:00.66 | 3:51.28 | 54066 | 71418

6 | 15:52.19 | 1:54.20 | 71419 | 79988

7 | 17:46.39 | 5:26.18 | 79989 | 104456

8 | 23:12.57 | 4:27.20 | 104457 | 124501

9 | 27:40.02 | 3:55.16 | 124502 | 142142

10 | 31:35.18 | 6:09.43 | 142143 | 169860

11 | 37:44.61 | 1:24.66 | 169861 | 176226

12 | 39:09.52 | 4:37.17 | 176227 | 197018

13 | 43:46.69 | 5:04.61 | 197019 | 219879

14 | 48:51.55 | 3:25.54 | 219880 | 235308

15 | 52:17.34 | 4:06.69 | 235309 | 253827

16 | 56:24.28 | 2:32.55 | 253828 | 265282

17 | 58:57.08 | 5:13.74 | 265283 | 288831

18 | 64:11.07 | 2:38.01 | 288832 | 300682

19 | 66:49.08 | 6:33.36 | 300683 | 330193

20 | 73:22.44 | 5:11.30 | 330194 | 353548

Pista 1

Nombre de Archivo 01 OutKast , The Love Below (Intro).wav

Nivel Pico 98.8 %

Velocidad de extracción 5.0 X

Calidad de Pista 100.0 %

Comprobación CRC 7AB280C9

Copiar CRC 7AB280C9

Copia OK

Pista 2

Nombre de Archivo 02 OutKast , Love Hater.wav

Nivel Pico 99.9 %

Velocidad de extracción 6.5 X

Calidad de Pista 100.0 %

Comprobación CRC 0EFFEC27

Copiar CRC 0EFFEC27

Copia OK

Pista 3

Nombre de Archivo 03 OutKast , God (Interlude).wav

Nivel Pico 95.1 %

Velocidad de extracción 6.6 X

Calidad de Pista 100.0 %

Comprobación CRC 2F7557E9

Copiar CRC 2F7557E9

Copia OK

Pista 4

Nombre de Archivo 04 OutKast , Happy Valentine's Day.wav

Nivel Pico 99.1 %

Velocidad de extracción 3.4 X

Calidad de Pista 99.8 %

Comprobación CRC DDE56358

Copiar CRC DDE56358

Copia OK

Pista 5

Nombre de Archivo 05 OutKast , Spread.wav

Nivel Pico 98.8 %

Velocidad de extracción 4.3 X

Calidad de Pista 99.8 %

Comprobación CRC 8885A179

Copiar CRC 8885A179

Copia OK

Pista 6

Nombre de Archivo 06 OutKast, Andr 3000, Toni Hunter , Where Are My Panties.wav

Nivel Pico 98.8 %

Velocidad de extracción 7.4 X

Calidad de Pista 100.0 %

Comprobación CRC 0F9F03CB

Copiar CRC 0F9F03CB

Copia OK

Pista 7

Nombre de Archivo 07 OutKast , Prototype.wav

Nivel Pico 98.8 %

Velocidad de extracción 9.8 X

Calidad de Pista 100.0 %

Comprobación CRC 78B7EAB3

Copiar CRC 78B7EAB3

Copia OK

Pista 8

Nombre de Archivo 08 OutKast , She Lives In My Lap.wav

Nivel Pico 98.8 %

Velocidad de extracción 10.0 X

Calidad de Pista 100.0 %

Comprobación CRC 30390157

Copiar CRC 30390157

Copia OK

Pista 9

Nombre de Archivo 09 OutKast , Hey Ya!.wav

Nivel Pico 95.8 %

Velocidad de extracción 6.7 X

Calidad de Pista 99.9 %

Comprobación CRC 92E3B095

Copiar CRC 92E3B095

Copia OK

Pista 10

Nombre de Archivo 10 OutKast , Roses.wav

Nivel Pico 98.8 %

Velocidad de extracción 11.5 X

Calidad de Pista 100.0 %

Comprobación CRC 5B90A869

Copiar CRC 5B90A869

Copia OK

Pista 11

Nombre de Archivo 11 OutKast, Andr 3000, Bently Fonzworth , Good Day, Good Sir.wav

Nivel Pico 67.3 %

Velocidad de extracción 8.2 X

Calidad de Pista 100.0 %

Comprobación CRC 6FEE5104

Copiar CRC 6FEE5104

Copia OK

Pista 12

Nombre de Archivo 12 OutKast , Behold A Lady.wav

Nivel Pico 99.1 %

Velocidad de extracción 7.9 X

Calidad de Pista 99.9 %

Comprobación CRC 1A3C2C28

Copiar CRC 1A3C2C28

Copia OK

Pista 13

Nombre de Archivo 13 OutKast , Pink & Blue.wav

Nivel Pico 95.2 %

Velocidad de extracción 12.0 X

Calidad de Pista 100.0 %

Comprobación CRC 7CDEF979

Copiar CRC 7CDEF979

Copia OK

Pista 14

Nombre de Archivo 14 OutKast , Love In War.wav

Nivel Pico 98.9 %

Velocidad de extracción 11.4 X

Calidad de Pista 100.0 %

Comprobación CRC 9CB78CB9

Copiar CRC 9CB78CB9

Copia OK

Pista 15

Nombre de Archivo 15 OutKast , She's Alive.wav

Nivel Pico 97.3 %

Velocidad de extracción 12.2 X

Calidad de Pista 100.0 %

Comprobación CRC 3BCE2D59

Copiar CRC 3BCE2D59

Copia OK

Pista 16

Nombre de Archivo 16 OutKast, Kelis , Dracula's Wedding.wav

Nivel Pico 98.8 %

Velocidad de extracción 11.1 X

Calidad de Pista 100.0 %

Comprobación CRC 697BA75A

Copiar CRC 697BA75A

Copia OK

Pista 17

Nombre de Archivo 17 OutKast , My Favorite Things.wav

Nivel Pico 98.8 %

Velocidad de extracción 13.1 X

Calidad de Pista 100.0 %

Comprobación CRC 72397C4D

Copiar CRC 72397C4D

Copia OK

Pista 18

Nombre de Archivo 18 OutKast, Norah Jones , Take Off Your Cool.wav

Nivel Pico 99.9 %

Velocidad de extracción 11.8 X

Calidad de Pista 100.0 %

Comprobación CRC 432FFC07

Copiar CRC 432FFC07

Copia OK

Pista 19

Nombre de Archivo 19 OutKast , Vibrate.wav

Nivel Pico 98.8 %

Velocidad de extracción 14.2 X

Calidad de Pista 100.0 %

Comprobación CRC 3CCE4AFD

Copiar CRC 3CCE4AFD

Copia OK

Pista 20

Nombre de Archivo 20 Benjamin Andr , A Life In The Day Of Benjamin Andre (Incomplete).wav

Nivel Pico 98.8 %

Velocidad de extracción 13.9 X

Calidad de Pista 100.0 %

Comprobación CRC 5A58F2CF

Copiar CRC 5A58F2CF

Copia OK

Sin Errores

Final del Informe

==== Log checksum E1A2D9EBD38CDA8272A818C15BCBB38AF766E8922158A013C28907529BF00924 ====

avatar gilypo
Desde 19/11/2014
España (Cantabria)
Vendedor registrado como particular.