Admite ofertas

PASTORA SOLER - EDICION ESPECIAL CD + DVD 2006 - DISCOS COMPROBADOS - CON LIBRETO - ENVÍO GRATUITO

Envío Gratis (envío certificado España)

Pago tc Acepta Pago tc

Número de items: 1

Estado del lote: Normal (con señales de uso normal)

El cd tiene marcas pero se ha verificado correctamente con el programa informático Exact Audio Copy (ver informe al final)

El Dvd tiene marcas pero se ha copiado íntegramente al disco duro sin problema y se ha reproducido algún contenido aleatoriamente sin fallo

+++

Envío certificado gratuito a toda España

+++

Fotos reales del artículo

+++

Exact Audio Copy V1.6 from 23. October 2020

Archivo Log de extracciones desde 17. Septiembre 2021, 18:24

Pastora Soler / Pastora Soler

Usar unidad : hp DVDRAM GU90N Adapter: 1 ID: 0

Modo de Lectura : : Seguro

Utilizar corriente precisa : Sí

Caché de audio por defecto : No

Utilizar los punteros C2 : No

Corrección de Desplazamiento de Lectura : : 102

Sobreleer tanto en Lead-In como en Lead-Out : No

Rellenar las muestras faltantes con silencios : Sí

Eliminar silencios inicial y final : No

Muestras nulas usadas en los calculos de CRC : Sí

Interfaz usada : Interfaz propio de Win32 para Windowns NT y 2000

Manejo de huecos : No se detectó, por lo que anexa a la pista anterior

Formato de Salida utilizado : : Rutinas WAV Internas

Formato de muestra : 44.100 Hz; 16 Bit; Estéreo

TOC extraídos del CD

Pista | Inicio | Longitud | Inicio del sector | Fin del sector

------------------------------------------------------------------

1 | 0:00.00 | 3:53.72 | 0 | 17546

2 | 3:53.72 | 4:16.31 | 17547 | 36777

3 | 8:10.28 | 3:46.25 | 36778 | 53752

4 | 11:56.53 | 4:00.70 | 53753 | 71822

5 | 15:57.48 | 4:02.37 | 71823 | 90009

6 | 20:00.10 | 3:54.43 | 90010 | 107602

7 | 23:54.53 | 3:57.55 | 107603 | 125432

8 | 27:52.33 | 3:49.21 | 125433 | 142628

9 | 31:41.54 | 3:46.65 | 142629 | 159643

10 | 35:28.44 | 4:52.01 | 159644 | 181544

11 | 40:20.45 | 3:27.51 | 181545 | 197120

12 | 43:48.21 | 3:52.00 | 197121 | 214520

13 | 47:40.21 | 3:53.34 | 214521 | 232029

14 | 51:33.55 | 3:34.12 | 232030 | 248091

15 | 55:07.67 | 3:32.56 | 248092 | 264047

Pista 1

Nombre de Archivo 01. Solo tú.wav

Nivel Pico 100.0 %

Velocidad de extracción 3.0 X

Calidad de Pista 100.0 %

Comprobación CRC 89102C17

Copiar CRC 89102C17

Extraida con precisión (confidencia 1) [C8BB364D] (AR v2)

Copia OK

Pista 2

Nombre de Archivo 02. Ha sido bello.wav

Nivel Pico 100.0 %

Velocidad de extracción 4.9 X

Calidad de Pista 100.0 %

Comprobación CRC 17BDD22F

Copiar CRC 17BDD22F

Extraida con precisión (confidencia 1) [DFA70438] (AR v2)

Copia OK

Pista 3

Nombre de Archivo 03. Flor de romero.wav

Nivel Pico 100.0 %

Velocidad de extracción 5.0 X

Calidad de Pista 100.0 %

Comprobación CRC B5FE4E98

Copiar CRC B5FE4E98

Extraida con precisión (confidencia 1) [22D2D9DB] (AR v2)

Copia OK

Pista 4

Nombre de Archivo 04. Que nos lleve el tiempo.wav

Nivel Pico 100.0 %

Velocidad de extracción 5.3 X

Calidad de Pista 100.0 %

Comprobación CRC 02EF6DE5

Copiar CRC 02EF6DE5

Extraida con precisión (confidencia 1) [C3F49377] (AR v2)

Copia OK

Pista 5

Nombre de Archivo 05. Non credere.wav

Nivel Pico 100.0 %

Velocidad de extracción 5.7 X

Calidad de Pista 100.0 %

Comprobación CRC B35597CB

Copiar CRC B35597CB

Extraida con precisión (confidencia 1) [52AC11CC] (AR v2)

Copia OK

Pista 6

Nombre de Archivo 06. Nada de nada.wav

Nivel Pico 100.0 %

Velocidad de extracción 5.7 X

Calidad de Pista 100.0 %

Comprobación CRC A6CF7DC2

Copiar CRC A6CF7DC2

Extraida con precisión (confidencia 1) [FE1EA3F4] (AR v2)

Copia OK

Pista 7

Nombre de Archivo 07. Encadenado.wav

Nivel Pico 100.0 %

Velocidad de extracción 5.5 X

Calidad de Pista 99.9 %

Comprobación CRC E9AE5E62

Copiar CRC E9AE5E62

Extraida con precisión (confidencia 1) [807C9182] (AR v2)

Copia OK

Pista 8

Nombre de Archivo 08. Vivir sin amor.wav

Nivel Pico 100.0 %

Velocidad de extracción 6.2 X

Calidad de Pista 100.0 %

Comprobación CRC 36C3139B

Copiar CRC 36C3139B

Extraida con precisión (confidencia 1) [4FDCDD88] (AR v2)

Copia OK

Pista 9

Nombre de Archivo 09. Vestida de besos.wav

Nivel Pico 100.0 %

Velocidad de extracción 6.2 X

Calidad de Pista 100.0 %

Comprobación CRC 542573A7

Copiar CRC 542573A7

Extraida con precisión (confidencia 1) [715FAAAB] (AR v2)

Copia OK

Pista 10

Nombre de Archivo 10. Luna nueva.wav

Nivel Pico 100.0 %

Velocidad de extracción 5.6 X

Calidad de Pista 100.0 %

Comprobación CRC CA64716C

Copiar CRC CA64716C

Extraida con precisión (confidencia 1) [6AB1B113] (AR v2)

Copia OK

Pista 11

Nombre de Archivo 11. La flor de Estambul.wav

Nivel Pico 100.0 %

Velocidad de extracción 5.7 X

Calidad de Pista 100.0 %

Comprobación CRC 2A4F4BD2

Copiar CRC 2A4F4BD2

Extraida con precisión (confidencia 1) [785A968C] (AR v2)

Copia OK

Pista 12

Nombre de Archivo 12. Mi trocito de vida.wav

Nivel Pico 100.0 %

Velocidad de extracción 4.1 X

Calidad de Pista 100.0 %

Comprobación CRC 5097133F

Copiar CRC 5097133F

Extraida con precisión (confidencia 1) [8B5789AF] (AR v2)

Copia OK

Pista 13

Nombre de Archivo 13. Por qué llorar.wav

Nivel Pico 100.0 %

Velocidad de extracción 4.4 X

Calidad de Pista 100.0 %

Comprobación CRC 99B70200

Copiar CRC 99B70200

Extraida con precisión (confidencia 1) [CA19B07F] (AR v2)

Copia OK

Pista 14

Nombre de Archivo 14. Fin de semana.wav

Nivel Pico 100.0 %

Velocidad de extracción 4.5 X

Calidad de Pista 100.0 %

Comprobación CRC 46728D0A

Copiar CRC 46728D0A

Extraida con precisión (confidencia 1) [5179A274] (AR v2)

Copia OK

Pista 15

Nombre de Archivo 15. Mariposas en la barriga (feat. Antonio Martínez Ares).wav

Nivel Pico 100.0 %

Velocidad de extracción 4.5 X

Calidad de Pista 100.0 %

Comprobación CRC CC163D4A

Copiar CRC CC163D4A

Extraida con precisión (confidencia 1) [A3C75B79] (AR v2)

Copia OK

Todas las pistas extraidas con precisión

Sin Errores

Final del Informe

---- CUETools DB Plugin V2.1.6

[CTDB TOCID: 8D4roN8pZ6v1BkULvwGrqQQz9QY-] disk not present in database

Submit result: 8D4roN8pZ6v1BkULvwGrqQQz9QY- has been uploaded

avatar gilypo
Desde 19/11/2014
España (Cantabria)
Vendedor registrado como particular.