Admite ofertas

TOMITA - SNOWFLAKES ARE DANCING - HIGH PERFORMANCE HP - CD - 2000- DISCO VERIFICADO - DEBUSSY ISAO

Envío desde 5,50€
Pago tc Acepta Pago tc

Número de items: 1

Estado del lote: Normal (con señales de uso normal)
Ver fotos y descripción

El disco tiene marcas pero se ha verificado con precisión con el programa informático Exact Audio Copy (ver informe al final)

+++

Bajo ningún concepto se envía ordinario, todos los envíos son certificados

Gastos de envío gratis para pedidos superiores a 30 euros con destino a España peninsular

Vea coste de envío en el apartado "Formas de pago y envío"

Fotos reales del artículo

+++

Exact Audio Copy V1.6 from 23. October 2020

Archivo Log de extracciones desde 8. Julio 2023, 16:22

Isao Tomita / Snowflakes Are Dancing (Dolby Surround HP)

Usar unidad : HL-DT-STDVD-ROM GDR8161B Adapter: 1 ID: 0

Modo de Lectura : : Seguro

Utilizar corriente precisa : Sí

Caché de audio por defecto : Sí

Utilizar los punteros C2 : Sí

Corrección de Desplazamiento de Lectura/Escritura combinadas : : 0

Sobreleer tanto en Lead-In como en Lead-Out : No

Rellenar las muestras faltantes con silencios : Sí

Eliminar silencios inicial y final : No

Muestras nulas usadas en los calculos de CRC : Sí

Interfaz usada : Interfaz propio de Win32 para Windowns NT y 2000

Manejo de huecos : No se detectó, por lo que anexa a la pista anterior

Formato de Salida utilizado : : Rutinas WAV Internas

Formato de muestra : 44.100 Hz; 16 Bit; Estéreo

TOC extraídos del CD

Pista | Inicio | Longitud | Inicio del sector | Fin del sector

------------------------------------------------------------------

1 | 0:00.00 | 2:16.72 | 0 | 10271

2 | 2:16.72 | 4:49.35 | 10272 | 31981

3 | 7:06.32 | 3:46.08 | 31982 | 48939

4 | 10:52.40 | 5:53.62 | 48940 | 75476

5 | 16:46.27 | 4:03.35 | 75477 | 93736

6 | 20:49.62 | 6:23.03 | 93737 | 122464

7 | 27:12.65 | 3:23.27 | 122465 | 137716

8 | 30:36.17 | 3:31.13 | 137717 | 153554

9 | 34:07.30 | 2:55.20 | 153555 | 166699

10 | 37:02.50 | 4:37.40 | 166700 | 187514

11 | 41:40.15 | 10:13.60 | 187515 | 233549

Pista 1

Nombre de Archivo 01 Snowflakes Are Dancing (Children's Corner, No. 4).wav

Nivel Pico 62.6 %

Velocidad de extracción 5.7 X

Calidad de Pista 100.0 %

Comprobación CRC 6C40DB61

Copiar CRC 6C40DB61

Copia OK

Pista 2

Nombre de Archivo 02 Reverie.wav

Nivel Pico 72.2 %

Velocidad de extracción 7.4 X

Calidad de Pista 100.0 %

Comprobación CRC BAEFB49B

Copiar CRC BAEFB49B

Copia OK

Pista 3

Nombre de Archivo 03 Gardens In The Rain (Estampes, No. 3).wav

Nivel Pico 95.2 %

Velocidad de extracción 7.9 X

Calidad de Pista 100.0 %

Comprobación CRC F1264014

Copiar CRC F1264014

Copia OK

Pista 4

Nombre de Archivo 04 Clair De Lune (Suite Bergamasque, No. 3).wav

Nivel Pico 70.4 %

Velocidad de extracción 9.1 X

Calidad de Pista 100.0 %

Comprobación CRC 3D9CCD6D

Copiar CRC 3D9CCD6D

Copia OK

Pista 5

Nombre de Archivo 05 Arabesque No. 1.wav

Nivel Pico 73.1 %

Velocidad de extracción 6.3 X

Calidad de Pista 99.9 %

Comprobación CRC 234E0FBA

Copiar CRC 234E0FBA

Copia OK

Pista 6

Nombre de Archivo 06 The Engulfed Cathedral (Preludes, Book I, No. 10).wav

Nivel Pico 84.0 %

Velocidad de extracción 8.0 X

Calidad de Pista 99.9 %

Comprobación CRC 076A2893

Copiar CRC 076A2893

Copia OK

Pista 7

Nombre de Archivo 07 Passepied (Suite Bergamasque, No. 4).wav

Nivel Pico 82.3 %

Velocidad de extracción 10.1 X

Calidad de Pista 100.0 %

Comprobación CRC 0EF5F38B

Copiar CRC 0EF5F38B

Copia OK

Pista 8

Nombre de Archivo 08 The Girl With The Flaxen Hair (Preludes, Book I, No. 8).wav

Nivel Pico 85.9 %

Velocidad de extracción 10.4 X

Calidad de Pista 100.0 %

Comprobación CRC 7D075E32

Copiar CRC 7D075E32

Copia OK

Pista 9

Nombre de Archivo 09 Golliwog's Cakewalk (Children's Corner, No. 6).wav

Nivel Pico 77.9 %

Velocidad de extracción 6.4 X

Calidad de Pista 99.8 %

Comprobación CRC 5228619C

Copiar CRC 5228619C

Copia OK

Pista 10

Nombre de Archivo 10 Footprints In The Snow (Preludes, Book I, No. 6).wav

Nivel Pico 72.4 %

Velocidad de extracción 11.7 X

Calidad de Pista 100.0 %

Comprobación CRC FAA7BD48

Copiar CRC FAA7BD48

Copia OK

Pista 11

Nombre de Archivo 11 Prelude To The Afternoon Of A Faun (From The Firebird Album).wav

Nivel Pico 93.2 %

Velocidad de extracción 13.4 X

Calidad de Pista 100.0 %

Comprobación CRC 27BCFC2C

Copiar CRC 27BCFC2C

Copia OK

Sin Errores

Final del Informe

==== Log checksum C9490C3314186E0F4A31D195CAD8AE89D4A5564B00C8BC1375836FBE8BFDEFB3 ====

avatar gilypo
Desde 19/11/2014
España (Cantabria)
Vendedor registrado como particular.