Admite ofertas

VANGELIS - DIRECT - CD - LAS NUEVAS MUSICAS - DISCO VERIFICADO - EDICIONES DEL PRADO

Envío desde 5,50€
Pago tc Acepta Pago tc

Número de items: 1

Estado del lote: Normal (con señales de uso normal)

El disco tiene pocas marcas y se ha verificado con el programa Exact Audio Copy (ver informe al final)

+++

Bajo ningún concepto se envía ordinario, todos los envíos son certificados

Gastos de envío gratis para pedidos superiores a 30 euros con destino a España peninsular

Vea coste de envío en el apartado "Formas de pago y envío"

Fotos reales del artículo

+++

Exact Audio Copy V1.6 from 23. October 2020


Archivo Log de extracciones desde 17. Septiembre 2022, 21:27


Vangelis / Direct


Usar unidad : hp   DVDRAM GU90N  Adapter: 1 ID: 0


Modo de Lectura  :    : Seguro

Utilizar corriente precisa : Sí

Caché de audio por defecto : No

Utilizar los punteros C2  : Sí


Corrección de Desplazamiento de Lectura :   : 102

Sobreleer tanto en Lead-In como en Lead-Out  : No

Rellenar las muestras faltantes con silencios : Sí

Eliminar silencios inicial y final      : No

Muestras nulas usadas en los calculos de CRC : Sí

Interfaz usada                : Interfaz propio de Win32 para Windowns NT y 2000

Manejo de huecos               : No se detectó, por lo que anexa a la pista anterior


Formato de Salida utilizado : : Rutinas WAV Internas

Formato de muestra       : 44.100 Hz; 16 Bit; Estéreo



TOC extraídos del CD


   Pista | Inicio | Longitud | Inicio del sector | Fin del sector 

  ------------------------------------------------------------------

    1 | 0:00.00 | 4:20.12 |      0    |   19511   

    2 | 4:20.12 | 4:44.63 |    19512    |   40874   

    3 | 9:05.00 | 6:12.00 |    40875    |   68774   

    4 | 15:17.00 | 5:43.37 |    68775    |   94536   

    5 | 21:00.37 | 5:20.50 |    94537    |   118586   

    6 | 26:21.12 | 4:27.38 |   118587    |   138649   

    7 | 30:48.50 | 3:31.50 |   138650    |   154524   

    8 | 34:20.25 | 3:58.50 |   154525    |   172424   

    9 | 38:19.00 | 7:12.00 |   172425    |   204824   

    10 | 45:31.00 | 5:04.12 |   204825    |   227636   

    11 | 50:35.12 | 5:02.63 |   227637    |   250349   

    12 | 55:38.00 | 7:53.00 |   250350    |   285824   



Pista 1


   Nombre de Archivo 01. The Motion of Stars.wav


   Nivel Pico 88.8 %

   Velocidad de extracción 4.7 X

   Calidad de Pista 100.0 %

   Comprobación CRC 298481C5

   Copiar CRC 298481C5

   Extraida con precisión (confidencia 2) [FFE036C4] (AR v2)

   Copia OK


Pista 2


   Nombre de Archivo 02. The Will of the Wind.wav


   Nivel Pico 95.0 %

   Velocidad de extracción 5.1 X

   Calidad de Pista 100.0 %

   Comprobación CRC 5BCD515E

   Copiar CRC 5BCD515E

   Extraida con precisión (confidencia 2) [17AF514D] (AR v2)

   Copia OK


Pista 3


   Nombre de Archivo 03. Metallic Rain.wav


   Nivel Pico 94.4 %

   Velocidad de extracción 6.0 X

   Calidad de Pista 100.0 %

   Comprobación CRC 4E75E885

   Copiar CRC 4E75E885

   Extraida con precisión (confidencia 2) [6C374084] (AR v2)

   Copia OK


Pista 4


   Nombre de Archivo 04. Elsewhere.wav


   Nivel Pico 62.7 %

   Velocidad de extracción 6.4 X

   Calidad de Pista 100.0 %

   Comprobación CRC 0A220A7D

   Copiar CRC 0A220A7D

   Extraida con precisión (confidencia 2) [31369478] (AR v2)

   Copia OK


Pista 5


   Nombre de Archivo 05. Dial Out.wav


   Nivel Pico 98.6 %

   Velocidad de extracción 7.1 X

   Calidad de Pista 100.0 %

   Comprobación CRC 1FAB7275

   Copiar CRC 1FAB7275

   Extraida con precisión (confidencia 2) [1A435537] (AR v2)

   Copia OK


Pista 6


   Nombre de Archivo 06. Glorianna (hymn à la femme).wav


   Nivel Pico 80.5 %

   Velocidad de extracción 7.4 X

   Calidad de Pista 100.0 %

   Comprobación CRC 994673DC

   Copiar CRC 994673DC

   Extraida con precisión (confidencia 2) [B21C8D32] (AR v2)

   Copia OK


Pista 7


   Nombre de Archivo 07. Rotation’s Logic.wav


   Nivel Pico 99.9 %

   Velocidad de extracción 7.4 X

   Calidad de Pista 100.0 %

   Comprobación CRC 04467C3F

   Copiar CRC 04467C3F

   Extraida con precisión (confidencia 2) [0521350F] (AR v2)

   Copia OK


Pista 8


   Nombre de Archivo 08. The Oracle of Apollo.wav


   Nivel Pico 57.7 %

   Velocidad de extracción 7.7 X

   Calidad de Pista 99.9 %

   Comprobación CRC 2ACC04A3

   Copiar CRC 2ACC04A3

   Extraida con precisión (confidencia 2) [A2A9ED67] (AR v2)

   Copia OK


Pista 9


   Nombre de Archivo 09. Message.wav


   Nivel Pico 100.0 %

   Velocidad de extracción 8.4 X

   Calidad de Pista 100.0 %

   Comprobación CRC AE2311B1

   Copiar CRC AE2311B1

   Extraida con precisión (confidencia 2) [E4532B87] (AR v2)

   Copia OK


Pista 10


   Nombre de Archivo 10. Ave.wav


   Nivel Pico 100.0 %

   Velocidad de extracción 8.7 X

   Calidad de Pista 100.0 %

   Comprobación CRC B223ECAC

   Copiar CRC B223ECAC

   Extraida con precisión (confidencia 2) [AE4D78EE] (AR v2)

   Copia OK


Pista 11


   Nombre de Archivo 11. First Approach.wav


   Nivel Pico 53.5 %

   Velocidad de extracción 9.5 X

   Calidad de Pista 100.0 %

   Comprobación CRC 9F8ED7A7

   Copiar CRC 9F8ED7A7

   Extraida con precisión (confidencia 2) [92CD10D8] (AR v2)

   Copia OK


Pista 12


   Nombre de Archivo 12. Intergalactic Radio Station.wav


   Nivel Pico 91.2 %

   Velocidad de extracción 10.0 X

   Calidad de Pista 100.0 %

   Comprobación CRC AB9EBCDC

   Copiar CRC AB9EBCDC

   Extraida con precisión (confidencia 2) [C717C438] (AR v2)

   Copia OK



Todas las pistas extraidas con precisión


Sin Errores


Final del Informe


---- CUETools DB Plugin V2.1.6


[CTDB TOCID: qGheZzarJj1rxnGEdMrRUuqSHGQ-] found

Submit result: qGheZzarJj1rxnGEdMrRUuqSHGQ- has been confirmed

Track | CTDB Status

 1  | (9/9) Accurately ripped

 2  | (9/9) Accurately ripped

 3  | (9/9) Accurately ripped

 4  | (9/9) Accurately ripped

 5  | (9/9) Accurately ripped

 6  | (9/9) Accurately ripped

 7  | (9/9) Accurately ripped

 8  | (9/9) Accurately ripped

 9  | (9/9) Accurately ripped

 10  | (9/9) Accurately ripped

 11  | (9/9) Accurately ripped

 12  | (9/9) Accurately ripped


avatar gilypo
Desde 19/11/2014
España (Cantabria)
Vendedor registrado como particular.