Admite ofertas

SERGIO MENDES - TIMELESS - 2006 - CD - DISCO VERIFICADO

Envío desde 5,50€
Pago tc Acepta Pago tc

Número de items: 1

Estado del lote: Normal (con señales de uso normal)
Ver fotos y descripción

El disco tiene pocas marcas y se ha verificado con precisión con el programa informático Exact Audio Copy (ver informe al final)

+++

Bajo ningún concepto se envía ordinario, todos los envíos son certificados

Gastos de envío gratis para pedidos superiores a 30 euros con destino a España peninsular

Vea coste de envío en el apartado "Formas de pago y envío"

Fotos reales del artículo

+++

Exact Audio Copy V1.6 from 23. October 2020

Archivo Log de extracciones desde 29. Julio 2023, 17:37

Sergio Mendes / Timeless

Usar unidad : HL-DT-STDVD-ROM GDR8161B Adapter: 1 ID: 0

Modo de Lectura : : Seguro

Utilizar corriente precisa : Sí

Caché de audio por defecto : Sí

Utilizar los punteros C2 : Sí

Corrección de Desplazamiento de Lectura/Escritura combinadas : : 0

Sobreleer tanto en Lead-In como en Lead-Out : No

Rellenar las muestras faltantes con silencios : Sí

Eliminar silencios inicial y final : No

Muestras nulas usadas en los calculos de CRC : Sí

Interfaz usada : Interfaz propio de Win32 para Windowns NT y 2000

Manejo de huecos : No se detectó, por lo que anexa a la pista anterior

Formato de Salida utilizado : : Rutinas WAV Internas

Formato de muestra : 44.100 Hz; 16 Bit; Estéreo

TOC extraídos del CD

Pista | Inicio | Longitud | Inicio del sector | Fin del sector

------------------------------------------------------------------

1 | 0:00.00 | 4:22.63 | 0 | 19712

2 | 4:22.63 | 4:13.66 | 19713 | 38753

3 | 8:36.54 | 4:22.34 | 38754 | 58437

4 | 12:59.13 | 3:50.06 | 58438 | 75693

5 | 16:49.19 | 4:14.28 | 75694 | 94771

6 | 21:03.47 | 3:14.06 | 94772 | 109327

7 | 24:17.53 | 4:31.07 | 109328 | 129659

8 | 28:48.60 | 4:09.33 | 129660 | 148367

9 | 32:58.18 | 4:38.39 | 148368 | 169256

10 | 37:36.57 | 3:54.02 | 169257 | 186808

11 | 41:30.59 | 5:32.66 | 186809 | 211774

12 | 47:03.50 | 3:13.73 | 211775 | 226322

13 | 50:17.48 | 3:21.20 | 226323 | 241417

14 | 53:38.68 | 3:31.57 | 241418 | 257299

15 | 57:10.50 | 5:09.45 | 257300 | 280519

Pista 1

Nombre de Archivo 01 Mas Que Nada [Feat. The Black Eyed Peas].wav

Nivel Pico 98.8 %

Velocidad de extracción 6.9 X

Calidad de Pista 100.0 %

Comprobación CRC 2E98FACB

Copiar CRC 2E98FACB

Copia OK

Pista 2

Nombre de Archivo 02 That Heat [Feat. Erykah Badu And Willam Of The Black Eyed Peas].wav

Nivel Pico 98.8 %

Velocidad de extracción 7.6 X

Calidad de Pista 100.0 %

Comprobación CRC B645F2CC

Copiar CRC B645F2CC

Copia OK

Pista 3

Nombre de Archivo 03 Berimbau,Consolacao [Feat. Stevie Wonder And Gracinha Leporace].wav

Nivel Pico 98.8 %

Velocidad de extracción 8.3 X

Calidad de Pista 100.0 %

Comprobación CRC AF15D2C5

Copiar CRC AF15D2C5

Copia OK

Pista 4

Nombre de Archivo 04 The Frog [Feat. Q-Tip And Willam Of The Black Eyed Peas].wav

Nivel Pico 98.8 %

Velocidad de extracción 5.7 X

Calidad de Pista 99.9 %

Comprobación CRC 8183CF50

Copiar CRC 8183CF50

Copia OK

Pista 5

Nombre de Archivo 05 Let Me [Feat. Jill Scott And Willam Of The Black Eyed Peas].wav

Nivel Pico 98.8 %

Velocidad de extracción 9.4 X

Calidad de Pista 100.0 %

Comprobación CRC 9595EA21

Copiar CRC 9595EA21

Copia OK

Pista 6

Nombre de Archivo 06 Bananeira [Feat. Mr. Vegas].wav

Nivel Pico 98.8 %

Velocidad de extracción 5.9 X

Calidad de Pista 99.8 %

Comprobación CRC 7B4DB783

Copiar CRC 7B4DB783

Copia OK

Pista 7

Nombre de Archivo 07 Surfboard [Feat. Willam Of The Black Eyed Peas].wav

Nivel Pico 98.8 %

Velocidad de extracción 10.3 X

Calidad de Pista 100.0 %

Comprobación CRC 5B62701C

Copiar CRC 5B62701C

Copia OK

Pista 8

Nombre de Archivo 08 Please Baby Don't [Feat. John Legend].wav

Nivel Pico 98.8 %

Velocidad de extracción 10.6 X

Calidad de Pista 100.0 %

Comprobación CRC D850CEDA

Copiar CRC D850CEDA

Copia OK

Pista 9

Nombre de Archivo 09 Samba Da Bencao [Feat. Marcelo D2].wav

Nivel Pico 98.8 %

Velocidad de extracción 7.9 X

Calidad de Pista 99.9 %

Comprobación CRC A11A63BA

Copiar CRC A11A63BA

Copia OK

Pista 10

Nombre de Archivo 10 Timeless [Feat. India.Arie].wav

Nivel Pico 99.9 %

Velocidad de extracción 11.4 X

Calidad de Pista 100.0 %

Comprobación CRC 5B38EE1D

Copiar CRC 5B38EE1D

Copia OK

Pista 11

Nombre de Archivo 11 Loose Ends [Feat. Justin Timberlake].wav

Nivel Pico 99.9 %

Velocidad de extracción 12.3 X

Calidad de Pista 100.0 %

Comprobación CRC BBC40F46

Copiar CRC BBC40F46

Copia OK

Pista 12

Nombre de Archivo 12 Fo'-Hop [Feat. Guinga And Marcelo D2].wav

Nivel Pico 98.8 %

Velocidad de extracción 11.5 X

Calidad de Pista 100.0 %

Comprobación CRC 57EFE972

Copiar CRC 57EFE972

Copia OK

Pista 13

Nombre de Archivo 13 Lamento (No Morro) [Feat. Maogani Quartet].wav

Nivel Pico 98.8 %

Velocidad de extracción 11.6 X

Calidad de Pista 100.0 %

Comprobación CRC B3F3DA59

Copiar CRC B3F3DA59

Copia OK

Pista 14

Nombre de Archivo 14 E Menina (Hey Girl).wav

Nivel Pico 98.8 %

Velocidad de extracción 11.4 X

Calidad de Pista 100.0 %

Comprobación CRC 381ABEEB

Copiar CRC 381ABEEB

Copia OK

Pista 15

Nombre de Archivo 15 Yes, Yes Y'All [Feat. Black Thought Of The Roots, Chali 2na Of Jurassic 5, Debi Nova & Willam Of The Black Eyed Peas].wav

Nivel Pico 98.8 %

Velocidad de extracción 12.0 X

Calidad de Pista 100.0 %

Comprobación CRC 2525F286

Copiar CRC 2525F286

Copia OK

Sin Errores

Final del Informe

==== Log checksum E592BD9A6B303931B8CE793240DA269D242ACA6552F45A82E758386617307B4C ====

avatar gilypo
Desde 19/11/2014
España (Cantabria)
Vendedor registrado como particular.